Предыдущее посещение: менее минуты назад Текущее время: 31 мар 2020, 23:28

Часовой пояс: UTC




 [ 1 сообщение ] 
Статистика раздачи
Размер|   17.71 ГБ    |   19 018 892 604 байт   
Раздают|   56   Качают|   92      
Последний личер: | 10 дней 16 часов 4 минуты 48 секунд назад  | (Google it!)
Автор Сообщение
Непрочитанное сообщение
Не в сети
Администратор
Администратор
Аватара пользователя


Открыть статистику

Раздал: 3.4 ТБ
Скачал: 6.65 ГБ
Ратио: 1520.045


Зарегистрирован: 01 июл 2016, 12:16
Сообщения: 1529
Баллы репутации: 10
За самый скачиваемый релиз
Медали: 7
за участие (1) Создание сайта (1) За 100 релизов (1) за 200 релизов (1)
За 500 релизов (1) За 1000 релизов (1) Кандидат на повышение (1)
Игра Дарвина / Darwins Game [S01] (2020) WEBRip 1080p | StudioBand»Скачать торрент

Информация о фильме
Название: Игра Дарвина
Оригинальное название: Darwin’s Game
Год выхода: 2020
Жанр: экшен, детектив, сёнен
Режиссер: Ёсинобу Токумото
В ролях: Юмири Ханамори, Юсукэ Кобаяси, Нитика Омори, Рэина Уэда, Таку Ясиро

О фильме:
Однажды семнадцатилетнему парню по имени Канамэ Судо приходит SMS от лучшего друга с просьбой о помощи в одной мобильной игре, и недолго думая Канамэ кликает по предложенной ссылке. После чего устанавливает приложение «Игра Дарвина» и начинает играть.

Однако вскоре выясняется, что выйти из игры нельзя, пока не устранишь всех своих соперников. Казалось бы, ничего необычного, но «Игра Дарвина» устроена так, чтобы сражаться против людей в реальном мире, откинув мораль и, собственно, человечность. Каждый игрок наделяется особой способностью, именуемой «сигилом». Сражаясь, люди зарабатывают игровые очки, которые позже можно с лёгкостью обменять на реальные деньги.

Так начинается «весёлая» жизнь Канамэ, и теперь ему приходится выживать в игровом мире и искать способ покинуть игру.


Страна: Япония
Продолжительность: ~ 00:24:00 (серия, первая серия 00:47:40)
Перевод: Профессиональный (многоголосый, закадровый) | StudioBand [Wakanim]

Файл
Формат: MP4
Кодек: MPEG-4 AVC
Качество: WEBRip 1080p
Видео: 1920x1080, 8 082 kb/s, 23.976 FPS, 8 bits
Аудио (русский): AAC LC, 384 kb/s, 2 channels, 48.0 kHz
Субтитры: Вшитые (на надписи)

Медиа инфо: 1-я серия

General
Complete name : Darwins_Game_01_RU_HD.mp4
Format : MPEG-4
Format profile : Base Media
Codec ID : isom (isom/iso2/avc1/mp41)
File size : 2.82 GiB
Duration : 47 min 40 s
Overall bit rate mode : Variable
Overall bit rate : 8 469 kb/s
Writing application : Lavf58.12.100

Video
ID : 1
Format : AVC
Format/Info : Advanced Video Codec
Format profile : High@L4.1
Format settings : CABAC / 4 Ref Frames
Format settings, CABAC : Yes
Format settings, Reference : 4 frames
Codec ID : avc1
Codec ID/Info : Advanced Video Coding
Duration : 47 min 39 s
Bit rate : 8 082 kb/s
Width : 1 920 pixels
Height : 1 080 pixels
Display aspect ratio : 16:9
Frame rate mode : Constant
Frame rate : 23.976 (24000/1001) FPS
Color space : YUV
Chroma subsampling : 4:2:0
Bit depth : 8 bits
Scan type : Progressive
Bits/(Pixel*Frame) : 0.163
Stream size : 2.69 GiB (95%)
Writing library : x264 core 155 r2901 7d0ff22
Encoding settings : cabac=1 / ref=4 / deblock=1:1:1 / analyse=0x3:0x133 / me=umh / subme=10 / psy=1 / psy_rd=0.40:0.00 / mixed_ref=1 / me_range=24 / chroma_me=1 / trellis=2 / 8x8dct=1 / cqm=0 / deadzone=21,11 / fast_pskip=1 / chroma_qp_offset=-2 / threads=24 / lookahead_threads=6 / sliced_threads=0 / nr=0 / decimate=1 / interlaced=0 / bluray_compat=0 / constrained_intra=0 / bframes=10 / b_pyramid=2 / b_adapt=2 / b_bias=0 / direct=3 / weightb=1 / open_gop=0 / weightp=2 / keyint=250 / keyint_min=23 / scenecut=40 / intra_refresh=0 / rc_lookahead=60 / rc=crf / mbtree=1 / crf=11.0 / qcomp=0.60 / qpmin=0 / qpmax=69 / qpstep=4 / ip_ratio=1.40 / aq=1:0.60
Codec configuration box : avcC

Audio
ID : 2
Format : AAC LC
Format/Info : Advanced Audio Codec Low Complexity
Codec ID : mp4a-40-2
Duration : 47 min 40 s
Duration_LastFrame : -7 ms
Bit rate mode : Variable
Bit rate : 384 kb/s
Maximum bit rate : 576 kb/s
Channel(s) : 2 channels
Channel layout : L R
Sampling rate : 48.0 kHz
Frame rate : 46.875 FPS (1024 SPF)
Compression mode : Lossy
Stream size : 130 MiB (4%)
Default : Yes
Alternate group : 1



2-я серия.

General
Complete name : Darwins_Game_02_RU_HD.mp4
Format : MPEG-4
Format profile : Base Media
Codec ID : isom (isom/iso2/avc1/mp41)
File size : 1.33 GiB
Duration : 23 min 40 s
Overall bit rate mode : Variable
Overall bit rate : 8 035 kb/s
Writing application : Lavf58.12.100

Video
ID : 1
Format : AVC
Format/Info : Advanced Video Codec
Format profile : High@L4.1
Format settings : CABAC / 4 Ref Frames
Format settings, CABAC : Yes
Format settings, Reference : 4 frames
Codec ID : avc1
Codec ID/Info : Advanced Video Coding
Duration : 23 min 40 s
Bit rate : 7 716 kb/s
Width : 1 920 pixels
Height : 1 080 pixels
Display aspect ratio : 16:9
Frame rate mode : Constant
Frame rate : 23.976 (24000/1001) FPS
Color space : YUV
Chroma subsampling : 4:2:0
Bit depth : 8 bits
Scan type : Progressive
Bits/(Pixel*Frame) : 0.155
Stream size : 1.28 GiB (96%)
Writing library : x264 core 155 r2901 7d0ff22
Encoding settings : cabac=1 / ref=4 / deblock=1:1:1 / analyse=0x3:0x133 / me=umh / subme=10 / psy=1 / psy_rd=0.40:0.00 / mixed_ref=1 / me_range=24 / chroma_me=1 / trellis=2 / 8x8dct=1 / cqm=0 / deadzone=21,11 / fast_pskip=1 / chroma_qp_offset=-2 / threads=24 / lookahead_threads=6 / sliced_threads=0 / nr=0 / decimate=1 / interlaced=0 / bluray_compat=0 / constrained_intra=0 / bframes=10 / b_pyramid=2 / b_adapt=2 / b_bias=0 / direct=3 / weightb=1 / open_gop=0 / weightp=2 / keyint=250 / keyint_min=23 / scenecut=40 / intra_refresh=0 / rc_lookahead=60 / rc=crf / mbtree=1 / crf=12.0 / qcomp=0.60 / qpmin=0 / qpmax=69 / qpstep=4 / ip_ratio=1.40 / aq=1:0.60
Codec configuration box : avcC

Audio
ID : 2
Format : AAC LC
Format/Info : Advanced Audio Codec Low Complexity
Codec ID : mp4a-40-2
Duration : 23 min 40 s
Duration_LastFrame : -9 ms
Bit rate mode : Variable
Bit rate : 314 kb/s
Maximum bit rate : 320 kb/s
Channel(s) : 2 channels
Channel layout : L R
Sampling rate : 48.0 kHz
Frame rate : 46.875 FPS (1024 SPF)
Compression mode : Lossy
Stream size : 53.1 MiB (4%)
Default : Yes
Alternate group : 1



3-я серия.

General
Complete name : Darwins_Game_03_RU_HD.mp4
Format : MPEG-4
Format profile : Base Media
Codec ID : isom (isom/iso2/avc1/mp41)
File size : 1.61 GiB
Duration : 23 min 40 s
Overall bit rate mode : Variable
Overall bit rate : 9 714 kb/s
Writing application : Lavf58.12.100

Video
ID : 1
Format : AVC
Format/Info : Advanced Video Codec
Format profile : High@L4.1
Format settings : CABAC / 4 Ref Frames
Format settings, CABAC : Yes
Format settings, Reference : 4 frames
Codec ID : avc1
Codec ID/Info : Advanced Video Coding
Duration : 23 min 40 s
Bit rate : 9 395 kb/s
Width : 1 920 pixels
Height : 1 080 pixels
Display aspect ratio : 16:9
Frame rate mode : Constant
Frame rate : 23.976 (24000/1001) FPS
Color space : YUV
Chroma subsampling : 4:2:0
Bit depth : 8 bits
Scan type : Progressive
Bits/(Pixel*Frame) : 0.189
Stream size : 1.55 GiB (97%)
Writing library : x264 core 155 r2901 7d0ff22
Encoding settings : cabac=1 / ref=4 / deblock=1:1:1 / analyse=0x3:0x133 / me=umh / subme=10 / psy=1 / psy_rd=0.40:0.00 / mixed_ref=1 / me_range=24 / chroma_me=1 / trellis=2 / 8x8dct=1 / cqm=0 / deadzone=21,11 / fast_pskip=1 / chroma_qp_offset=-2 / threads=24 / lookahead_threads=6 / sliced_threads=0 / nr=0 / decimate=1 / interlaced=0 / bluray_compat=0 / constrained_intra=0 / bframes=10 / b_pyramid=2 / b_adapt=2 / b_bias=0 / direct=3 / weightb=1 / open_gop=0 / weightp=2 / keyint=250 / keyint_min=23 / scenecut=40 / intra_refresh=0 / rc_lookahead=60 / rc=crf / mbtree=1 / crf=11.0 / qcomp=0.60 / qpmin=0 / qpmax=69 / qpstep=4 / ip_ratio=1.40 / aq=1:0.60
Codec configuration box : avcC

Audio
ID : 2
Format : AAC LC
Format/Info : Advanced Audio Codec Low Complexity
Codec ID : mp4a-40-2
Duration : 23 min 40 s
Duration_LastFrame : -9 ms
Bit rate mode : Variable
Bit rate : 313 kb/s
Maximum bit rate : 320 kb/s
Channel(s) : 2 channels
Channel layout : L R
Sampling rate : 48.0 kHz
Frame rate : 46.875 FPS (1024 SPF)
Compression mode : Lossy
Stream size : 53.1 MiB (3%)
Default : Yes
Alternate group : 1



4-я серия

General
Complete name : Darwins_Game_04_RU_HD.mp4
Format : MPEG-4
Format profile : Base Media
Codec ID : isom (isom/iso2/avc1/mp41)
File size : 1.55 GiB
Duration : 23 min 35 s
Overall bit rate mode : Variable
Overall bit rate : 9 423 kb/s
Writing application : Lavf58.12.100

Video
ID : 1
Format : AVC
Format/Info : Advanced Video Codec
Format profile : High@L4.1
Format settings : CABAC / 4 Ref Frames
Format settings, CABAC : Yes
Format settings, Reference : 4 frames
Codec ID : avc1
Codec ID/Info : Advanced Video Coding
Duration : 23 min 34 s
Bit rate : 9 101 kb/s
Width : 1 920 pixels
Height : 1 080 pixels
Display aspect ratio : 16:9
Frame rate mode : Constant
Frame rate : 23.976 (24000/1001) FPS
Color space : YUV
Chroma subsampling : 4:2:0
Bit depth : 8 bits
Scan type : Progressive
Bits/(Pixel*Frame) : 0.183
Stream size : 1.50 GiB (97%)
Writing library : x264 core 155 r2901 7d0ff22
Encoding settings : cabac=1 / ref=4 / deblock=1:1:1 / analyse=0x3:0x133 / me=umh / subme=10 / psy=1 / psy_rd=0.40:0.00 / mixed_ref=1 / me_range=24 / chroma_me=1 / trellis=2 / 8x8dct=1 / cqm=0 / deadzone=21,11 / fast_pskip=1 / chroma_qp_offset=-2 / threads=24 / lookahead_threads=6 / sliced_threads=0 / nr=0 / decimate=1 / interlaced=0 / bluray_compat=0 / constrained_intra=0 / bframes=10 / b_pyramid=2 / b_adapt=2 / b_bias=0 / direct=3 / weightb=1 / open_gop=0 / weightp=2 / keyint=250 / keyint_min=23 / scenecut=40 / intra_refresh=0 / rc_lookahead=60 / rc=crf / mbtree=1 / crf=11.0 / qcomp=0.60 / qpmin=0 / qpmax=69 / qpstep=4 / ip_ratio=1.40 / aq=1:0.60
Codec configuration box : avcC

Audio
ID : 2
Format : AAC LC
Format/Info : Advanced Audio Codec Low Complexity
Codec ID : mp4a-40-2
Duration : 23 min 35 s
Bit rate mode : Variable
Bit rate : 317 kb/s
Maximum bit rate : 320 kb/s
Channel(s) : 2 channels
Channel layout : L R
Sampling rate : 48.0 kHz
Frame rate : 46.875 FPS (1024 SPF)
Compression mode : Lossy
Stream size : 53.4 MiB (3%)
Default : Yes
Alternate group : 1


_________________



 
 
 
Понравилась тема расскажи друзьям!


  • Торрент

Игра Дарвина / Darwins Game [S01] (2020) WEBRip 1080p | StudioBand.torrent 
Зарегистрирован:  21 мар 2020, 04:14  HASH|aec633358ffc450f724b63181aaae01d8d5382c2| (Google it!)
Статус:  Проверено | хакер
Торрент:  Размер: 17.71 ГБ | Скачан: 111 раз | Торрент файл: 90.37 КБ  
Здоровье:   60%
Поделиться:
 
Как качать?
Как качать?
X
Скачайте торрент и откройте его в своем клиенте
uTorrent

скачать программу,
дождитесь окончания загрузки.
* Как смотреть?
Как смотреть?
X

Для работы Magic Player
Вам необходимо установить
Ace Stream P2P Multimedia Plug-in

Установить

Для работы Magic Player
Вам необходимо включить
Ace Stream P2P Multimedia Plug-in

Инструкция
 [ 1 сообщение ] 

   Похожие торренты   Автор   Ответы   Просмотры   Последнее сообщение 
Непрочитанные сообщения * Запрещён Перейти к первому непрочитанному сообщениюИгра престолов / 8 сезон: 1-6 серии из 6 / Game of Thrones [2019 BDRip 1080p] Dub [Лицензия] За каждые 100 байт. аплоада (сидирования) этого торрента начисляется бонус: 1.000 Данный торрент является блокированным, причина: запрещённый торрент

в форуме Законченные зарубежные сериалы, Размер: 30.87 ГБ, Здоровье: 33%

хакер

0
1|3

1156
27

26 ноя 2019, 15:27

хакер Перейти к последнему сообщению

Непрочитанные сообщения Скачать торрент Магнет ссылка Проверено Перейти к первому непрочитанному сообщениюДорога зверя / Kemono Michi: Rise Up [S01] (2019) WEBRip 1080p | StudioBand За каждые 100 байт. аплоада (сидирования) этого торрента начисляется бонус: 1.000

в форуме Аниме, Размер: 20.02 ГБ, Здоровье: 100%

хакер

0
21|14

387
1804

22 дек 2019, 04:28

хакер Перейти к последнему сообщению

Непрочитанные сообщения Скачать торрент Магнет ссылка Проверено Перейти к первому непрочитанному сообщениюСборник клипов - Свежий Русский Хит (часть 1) [2020, Pop, WEBRip 1080p] За каждые 100 байт. аплоада (сидирования) этого торрента начисляется бонус: 1.000

в форуме Раздачи не вошедшие в категории, Размер: 15.7 ГБ, Здоровье: 100%

хакер

0
33|15

170
798

08 мар 2020, 19:18

хакер Перейти к последнему сообщению

Непрочитанные сообщения Скачать торрент Магнет ссылка Проверено Перейти к первому непрочитанному сообщениюСупермен: Красный сын / Superman: Red Son (Сэм Лью) [2020 г., Мультфильм, боевик, фантастика, WEBRip 1080p] MVO За каждые 100 байт. аплоада (сидирования) этого торрента начисляется бонус: 1.000

в форуме Зарубежные мульт фильмы, Размер: 4.92 ГБ, Здоровье: 100%

хакер

0
14|1

331
1021

01 мар 2020, 06:18

хакер Перейти к последнему сообщению

Непрочитанные сообщения Скачать торрент Магнет ссылка Проверено Перейти к первому непрочитанному сообщениюКукла 2: Брамс / Brahms: The Boy II [2020, Ужасы, триллер, драма, детектив, WEBRip 1080p | Line] За каждые 100 байт. аплоада (сидирования) этого торрента начисляется бонус: 1.000

в форуме Фильмы 2015-2020 г., Размер: 4.54 ГБ, Здоровье: 100%

хакер

0
1114|107

290
11051

18 мар 2020, 16:48

хакер Перейти к последнему сообщению


Часовой пояс: UTC


Кто сейчас на конференции

Сейчас этот форум просматривают: Majestic-12 [Bot] и гости: 1


Вы не можете начинать темы
Вы не можете отвечать на сообщения
Вы не можете редактировать свои сообщения
Вы не можете удалять свои сообщения
Вы не можете добавлять вложения

Найти:
Перейти:  
Ресурс не предоставляет электронные версии произведений, а занимается лишь коллекционированием и каталогизацией ссылок, присылаемых и публикуемых на форуме нашими читателями. Если вы являетесь правообладателем какого-либо представленного материала и не желаете чтобы ссылка на него находилась в нашем каталоге, свяжитесь с нами и мы незамедлительно удалим её. Файлы для обмена на трекере предоставлены пользователями сайта, и администрация не несёт ответственности за их содержание. Просьба не заливать файлы, защищенные авторскими правами, а также файлы нелегального содержания!